<?xml version="1.0" standalone="no"?>
<!DOCTYPE svg PUBLIC "-//W3C//DTD SVG 1.1//EN" "http://www.w3.org/Graphics/SVG/1.1/DTD/svg11.dtd" >
<svg xmlns="http://www.w3.org/2000/svg">
<metadata>Generated by IcoMoon</metadata>
<defs>
<font id="icomoon" horiz-adv-x="1024">
<font-face units-per-em="1024" ascent="960" descent="-64" />
<missing-glyph horiz-adv-x="1024" />
<glyph unicode="&#x20;" horiz-adv-x="512" d="" />
<glyph unicode="&#xe900;" glyph-name="cart-icon" d="M719.023 699.984h133.705c27.307 0 50.005-24.116 50.359-52.489v-3.901l-52.843-563.547c-4.254-71.287-64.546-122.714-143.279-122.714h-394.734c-81.216 0-139.025 49.297-141.153 120.23l-52.844 570.286v3.901c0 27.663 22.698 48.233 52.489 48.233h143.991v21.634c0 121.647 88.664 217.050 202.154 217.050s202.155-95.403 202.155-217.050v-21.634zM516.868 871.993c-77.315 0-135.479-64.547-135.479-150.374v-21.634h270.959v21.634c0 85.827-58.163 150.374-135.48 150.374zM779.315 81.818v3.904l51.422 547.587h-646.537l51.425-549.716v-3.9c0-37.952 38.658-55.33 74.478-55.33h394.733c35.819 0 74.479 18.091 74.479 57.455zM339.895 540.744v-53.2h354.655v53.2h-354.655z" />
<glyph unicode="&#xe901;" glyph-name="clock" d="M17.534 448c0 273.21 222.274 495.484 495.483 495.484s495.484-222.274 495.484-495.484c0-273.21-222.274-495.484-495.484-495.484s-495.483 222.274-495.483 495.484zM50.566 448c0-254.993 207.459-462.452 462.451-462.452s462.452 207.459 462.452 462.452c0 254.993-207.459 462.452-462.452 462.452s-462.451-207.459-462.451-462.452zM529.534 681.228v-167.507c28.408-7.383 49.548-33.016 49.548-63.719 0-36.435-29.63-66.065-66.065-66.065-30.687 0-56.337 21.141-63.719 49.548h-117.958c-9.116 0-16.515 7.383-16.515 16.516s7.399 16.516 16.515 16.516h117.958c6.012 23.106 24.097 41.191 47.203 47.203v167.507c0 9.133 7.399 16.516 16.516 16.516s16.516-7.383 16.516-16.516zM479.985 450.002c0-18.217 14.815-33.032 33.032-33.032s33.032 14.815 33.032 33.032c0 18.217-14.815 33.032-33.032 33.032s-33.032-14.815-33.032-33.032zM513.021 780.323c-9.117 0-16.516 7.383-16.516 16.516v16.516c0 9.133 7.399 16.516 16.516 16.516s16.516-7.383 16.516-16.516v-16.516c0-9.133-7.399-16.516-16.516-16.516zM496.505 103.16v-16.516c0-9.133 7.399-16.516 16.516-16.516s16.516 7.383 16.516 16.516v16.516c0 9.133-7.399 16.516-16.516 16.516s-16.516-7.383-16.516-16.516zM876.376 466.515c9.117 0 16.516-7.383 16.516-16.516s-7.399-16.516-16.516-16.516h-16.516c-9.117 0-16.516 7.383-16.516 16.516s7.399 16.516 16.516 16.516h16.516zM149.659 466.515c-9.117 0-16.516-7.383-16.516-16.516s7.399-16.516 16.516-16.516h16.516c9.117 0 16.516 7.383 16.516 16.516s-7.399 16.516-16.516 16.516h-16.516zM758.265 718.612c6.458 6.441 16.896 6.458 23.354 0s6.458-16.896 0-23.354l-11.677-11.677c-3.221-3.221-7.449-4.839-11.677-4.839s-8.456 1.619-11.677 4.839c-6.458 6.458-6.458 16.896 0 23.354l11.677 11.677zM244.414 204.75c-6.458-6.458-6.458-16.896 0-23.354 3.221-3.221 7.449-4.839 11.677-4.839s8.456 1.619 11.677 4.839l11.677 11.677c6.458 6.458 6.458 16.896 0 23.354s-16.913 6.441-23.354 0l-11.677-11.677zM746.588 216.427c6.458 6.458 16.896 6.458 23.354 0l11.677-11.677c6.458-6.458 6.458-16.896 0-23.354-3.221-3.221-7.449-4.839-11.677-4.839s-8.456 1.619-11.677 4.839l-11.677 11.677c-6.458 6.458-6.458 16.896 0 23.354zM244.414 718.618c-6.458-6.458-6.458-16.896 0-23.354l11.677-11.677c3.221-3.221 7.449-4.839 11.677-4.839s8.456 1.619 11.677 4.839c6.458 6.458 6.458 16.896 0 23.354l-11.677 11.677c-6.458 6.458-16.896 6.458-23.354 0zM529.534 513.721h-9.91v-7.663l7.419-1.926 2.491 9.589zM449.298 433.486l9.593 2.494-1.929 7.416h-7.663v-9.91zM449.298 466.518v-9.91h7.663l1.929 7.416-9.593 2.494zM496.501 513.721l2.497-9.589 7.412 1.929v7.66h-9.91zM746.588 706.936v0zM758.265 718.612l-7 7.016-0.010-0.009 7.009-7.007zM746.588 683.582v0zM769.942 683.582v0zM781.619 695.259v0zM781.619 718.612v0zM256.091 216.427v0zM244.414 204.75v0zM279.445 216.427v0zM279.445 193.074v0zM267.768 181.397v0zM244.414 181.397v0zM746.588 193.074v0zM746.588 216.427v0zM758.265 181.397v0zM781.619 181.397v0zM279.445 706.942v0zM279.445 683.588v0zM513.017 953.394c-278.682 0-505.393-226.711-505.393-505.394h19.819c0 267.737 217.837 485.574 485.573 485.574v19.819zM1018.411 448c0 278.683-226.71 505.394-505.394 505.394v-19.819c267.736 0 485.574-217.838 485.574-485.574h19.819zM513.017-57.394c278.683 0 505.394 226.71 505.394 505.394h-19.819c0-267.736-217.838-485.574-485.574-485.574v-19.819zM7.625 448c0-278.683 226.711-505.394 505.393-505.394v19.819c-267.736 0-485.573 217.838-485.573 485.574h-19.819zM513.017-4.542c-249.519 0-452.541 203.023-452.541 452.542h-19.819c0-260.466 211.896-472.361 472.361-472.361v19.819zM965.559 448c0-249.519-203.023-452.542-452.542-452.542v-19.819c260.466 0 472.361 211.895 472.361 472.361h-19.819zM513.017 900.542c249.519 0 452.542-203.023 452.542-452.542h19.819c0 260.466-211.895 472.361-472.361 472.361v-19.819zM60.476 448c0 249.519 203.023 452.542 452.541 452.542v19.819c-260.465 0-472.361-211.896-472.361-472.361h19.819zM539.443 513.721v167.507h-19.819v-167.507h19.819zM588.992 450.002c0 35.401-24.368 64.839-56.964 73.312l-4.985-19.182c24.219-6.296 42.129-28.124 42.129-54.13h19.819zM513.017 374.028c41.908 0 75.974 34.066 75.974 75.974h-19.819c0-30.961-25.194-56.155-56.155-56.155v-19.819zM439.709 430.992c8.469-32.596 37.928-56.964 73.308-56.964v19.819c-25.993 0-47.834 17.913-54.127 42.133l-19.182-4.988zM331.34 423.576h117.958v19.819h-117.958v-19.819zM304.915 450.002c0-14.613 11.842-26.426 26.425-26.426v19.819c-3.65 0-6.606 2.953-6.606 6.606h-19.819zM331.34 476.428c-14.583 0-26.425-11.812-26.425-26.426h19.819c0 3.653 2.956 6.606 6.606 6.606v19.819zM449.298 476.428h-117.958v-19.819h117.958v19.819zM494.007 523.31c-26.584-6.914-47.381-27.714-54.298-54.298l19.182-4.988c5.107 19.628 20.477 35.001 40.108 40.108l-4.991 19.179zM486.592 681.228v-167.507h19.819v167.507h-19.819zM513.017 707.654c-14.584 0-26.426-11.813-26.426-26.426h19.819c0 3.654 2.956 6.606 6.606 6.606v19.819zM539.443 681.228c0 14.613-11.842 26.426-26.426 26.426v-19.819c3.65 0 6.606-2.952 6.606-6.606h19.819zM513.017 426.879c-12.744 0-23.123 10.379-23.123 23.123h-19.819c0-23.691 19.251-42.942 42.942-42.942v19.819zM536.14 450.002c0-12.744-10.379-23.123-23.123-23.123v-19.819c23.691 0 42.942 19.251 42.942 42.942h-19.819zM513.017 473.124c12.744 0 23.123-10.379 23.123-23.123h19.819c0 23.691-19.251 42.942-42.942 42.942v-19.819zM489.895 450.002c0 12.744 10.379 23.123 23.123 23.123v19.819c-23.691 0-42.942-19.251-42.942-42.942h19.819zM519.627 796.839c0-3.654-2.953-6.606-6.606-6.606v-19.819c14.584 0 26.426 11.813 26.426 26.426h-19.819zM519.627 813.355v-16.516h19.819v16.516h-19.819zM513.021 819.961c3.653 0 6.606-2.952 6.606-6.606h19.819c0 14.613-11.842 26.426-26.426 26.426v-19.819zM506.414 813.355c0 3.654 2.956 6.606 6.606 6.606v19.819c-14.58 0-26.426-11.813-26.426-26.426h19.819zM506.414 796.839v16.516h-19.819v-16.516h19.819zM513.021 790.232c-3.65 0-6.606 2.952-6.606 6.606h-19.819c0-14.613 11.845-26.426 26.426-26.426v19.819zM513.021 129.586c-14.58 0-26.426-11.812-26.426-26.426h19.819c0 3.653 2.956 6.606 6.606 6.606v19.819zM539.447 103.16c0 14.613-11.842 26.426-26.426 26.426v-19.819c3.653 0 6.606-2.953 6.606-6.606h19.819zM539.447 86.644v16.516h-19.819v-16.516h19.819zM513.021 60.218c14.584 0 26.426 11.812 26.426 26.426h-19.819c0-3.653-2.953-6.606-6.606-6.606v-19.819zM486.595 86.644c0-14.613 11.845-26.426 26.426-26.426v19.819c-3.65 0-6.606 2.953-6.606 6.606h-19.819zM486.595 103.16v-16.516h19.819v16.516h-19.819zM859.859 456.605h16.516v19.819h-16.516v-19.819zM853.253 449.998c0 3.653 2.956 6.606 6.606 6.606v19.819c-14.58 0-26.426-11.812-26.426-26.426h19.819zM859.859 443.392c-3.65 0-6.606 2.953-6.606 6.606h-19.819c0-14.613 11.845-26.426 26.426-26.426v19.819zM876.376 443.392h-16.516v-19.819h16.516v19.819zM882.982 449.998c0-3.653-2.953-6.606-6.606-6.606v-19.819c14.584 0 26.426 11.812 26.426 26.426h-19.819zM876.376 456.605c3.653 0 6.606-2.953 6.606-6.606h19.819c0 14.613-11.842 26.426-26.426 26.426v-19.819zM166.175 476.424h-16.516v-19.819h16.516v19.819zM192.601 449.998c0 14.613-11.842 26.426-26.426 26.426v-19.819c3.65 0 6.606-2.953 6.606-6.606h19.819zM166.175 423.573c14.583 0 26.426 11.812 26.426 26.426h-19.819c0-3.653-2.956-6.606-6.606-6.606v-19.819zM149.659 423.573h16.516v19.819h-16.516v-19.819zM123.233 449.998c0-14.613 11.842-26.426 26.426-26.426v19.819c-3.65 0-6.606 2.953-6.606 6.606h-19.819zM149.659 476.424c-14.583 0-26.426-11.812-26.426-26.426h19.819c0 3.653 2.956 6.606 6.606 6.606v19.819zM753.595 699.928l11.677 11.677-14.016 14.014-11.677-11.677 14.016-14.014zM753.595 690.589c-2.586 2.588-2.586 6.751 0 9.34l-14.016 14.014c-10.326-10.328-10.326-27.041 0-37.368l14.016 14.014zM758.265 688.652c-1.701 0-3.379 0.645-4.671 1.937l-14.016-14.014c5.15-5.149 11.931-7.742 18.686-7.742v19.819zM762.933 690.589c-1.292-1.292-2.966-1.937-4.667-1.937v-19.819c6.755 0 13.533 2.592 18.683 7.742l-14.016 14.014zM774.61 702.266l-11.677-11.677 14.016-14.014 11.677 11.677-14.016 14.014zM774.61 711.605c2.59-2.588 2.59-6.752 0-9.34l14.016-14.014c10.329 10.328 10.329 27.040 0 37.368l-14.016-14.014zM765.262 711.596c2.603 2.594 6.772 2.585 9.348 0.009l14.016 14.014c-10.339 10.339-27.044 10.297-37.359 0.009l13.996-14.032zM249.084 223.433l-11.677-11.677 14.014-14.012 11.677 11.677-14.014 14.012zM286.452 223.433c-10.334 10.336-27.063 10.306-37.368 0l14.014-14.012c2.578 2.577 6.758 2.58 9.34 0l14.014 14.012zM286.452 186.067c10.328 10.326 10.328 27.040 0 37.366l-14.014-14.012c2.588-2.59 2.588-6.752 0-9.342l14.014-14.012zM274.775 174.391l11.677 11.677-14.014 14.012-11.677-11.677 14.014-14.012zM256.091 166.648c6.755 0 13.535 2.593 18.684 7.743l-14.014 14.012c-1.292-1.292-2.969-1.936-4.67-1.936v-19.819zM237.407 174.391c5.149-5.15 11.929-7.743 18.684-7.743v19.819c-1.701 0-3.378 0.644-4.67 1.936l-14.014-14.012zM237.407 211.757c-10.328-10.326-10.328-27.040 0-37.366l14.014 14.012c-2.588 2.59-2.588 6.752 0 9.342l-14.014 14.012zM753.595 200.080c-2.586 2.59-2.586 6.752 0 9.338l-14.016 14.016c-10.326-10.326-10.326-27.040 0-37.366l14.016 14.012zM765.272 188.403l-11.677 11.677-14.016-14.016 11.677-11.674 14.016 14.012zM769.942 186.467c-1.701 0-3.379 0.644-4.671 1.936l-14.016-14.012c5.15-5.15 11.931-7.743 18.686-7.743v19.819zM774.61 188.403c-1.292-1.292-2.966-1.936-4.667-1.936v-19.819c6.755 0 13.533 2.593 18.683 7.743l-14.016 14.012zM774.61 197.744c2.59-2.59 2.59-6.752 0-9.342l14.016-14.012c10.329 10.326 10.329 27.040 0 37.366l-14.016-14.012zM762.933 209.421l11.677-11.677 14.016 14.012-11.677 11.677-14.016-14.012zM753.595 209.421c2.586 2.586 6.752 2.586 9.338 0l14.016 14.012c-10.329 10.329-27.040 10.329-37.369 0l14.016-14.012zM274.775 725.626c-10.328 10.328-27.041 10.328-37.368 0l14.014-14.014c2.588 2.588 6.751 2.588 9.34 0l14.014 14.014zM286.452 713.949l-11.677 11.677-14.014-14.014 11.677-11.677 14.014 14.014zM286.452 676.581c10.328 10.328 10.328 27.040 0 37.368l-14.014-14.015c2.588-2.588 2.588-6.751 0-9.339l14.014-14.014zM267.768 668.839c6.755 0 13.535 2.592 18.684 7.742l-14.014 14.014c-1.292-1.292-2.969-1.937-4.67-1.937v-19.819zM249.084 676.581c5.149-5.149 11.929-7.742 18.684-7.742v19.819c-1.701 0-3.378 0.645-4.67 1.937l-14.014-14.014zM237.407 688.257l11.677-11.677 14.014 14.014-11.677 11.677-14.014-14.014zM237.407 725.626c-10.328-10.328-10.328-27.041 0-37.368l14.014 14.014c-2.588 2.588-2.588 6.751 0 9.34l-14.014 14.014z" />
<glyph unicode="&#xe902;" glyph-name="close" d="M583.381 448.391l394.961 393.742c4.461 4.465 8.115 9.742 10.554 15.628 2.432 5.885 3.654 12.177 3.654 18.469s-1.222 12.584-3.654 18.469c-2.438 5.886-6.093 11.163-10.554 15.628-9.133 8.93-21.312 14.004-34.099 14.004s-25.165-5.074-34.298-14.004l-394.15-393.539-397.801 399.222c-9.133 8.118-21.108 12.381-33.489 11.975s-23.949-5.48-32.473-14.207c-8.727-8.727-13.801-20.296-14.207-32.677s3.856-24.355 11.772-33.489l397.598-399.019-399.019-398.412c-4.465-4.461-8.118-9.741-10.554-15.629-2.436-5.882-3.653-12.173-3.653-18.464 0-6.298 1.218-12.589 3.653-18.47 2.436-5.888 6.089-11.162 10.554-15.629 9.133-8.928 21.311-14.003 34.097-14.003s25.167 5.075 34.097 14.003l398.613 397.8 396.178-397.192c9.133-9.133 21.51-14.208 34.298-14.208s25.171 5.075 34.304 14.208c9.133 9.133 14.208 21.517 14.208 34.502 0 12.992-5.075 25.165-14.208 34.304l-396.382 396.986z" />
<glyph unicode="&#xe903;" glyph-name="compare" d="M357.441 933.053l53.443-53.443-177.369-179.305h577.805v-81.326h-577.805l177.369-179.305-53.443-53.443-273.411 273.411 273.411 273.411zM650.601 509.769l-53.441-53.443 177.367-179.307h-578.189v-81.322h578.189l-177.367-179.308 53.441-53.442 273.025 273.413-273.025 273.409z" />
<glyph unicode="&#xe904;" glyph-name="down-arrow" d="M930.868 623.305c5.926-5.926 8.888-12.741 8.888-20.445 0-7.703-2.963-14.518-8.888-20.444l-414.223-414.223c-5.926-5.926-12.741-8.888-20.444-8.888s-14.519 2.963-20.445 8.888l-414.223 414.223c-5.926 5.926-8.889 12.741-8.889 20.444s2.963 14.519 8.889 20.445l44.445 44.445c5.926 5.926 12.741 8.888 20.445 8.888 7.703 0 14.518-2.963 20.444-8.888l349.334-349.334 349.333 349.334c5.926 5.926 12.741 8.888 20.445 8.888 7.703 0 14.518-2.963 20.444-8.888l44.445-44.445z" />
<glyph unicode="&#xe905;" glyph-name="email" d="M487.398 436.945h-0.004l-385.075 261.725v3.446c0 27.679 22.529 50.205 50.205 50.205h729.924c27.682 0 50.204-22.526 50.204-50.205v-21.535l-383.72-244.527c-18.917-12.050-43.061-11.674-61.535 0.891zM570.374 402.384h0.006l77.978 49.693 278.528-278.526c-8.414-15.991-25.179-26.908-44.436-26.908h-729.924c-19.25 0-36.015 10.917-44.435 26.908l281.566 281.565 75.303-51.181c16.246-11.046 35.040-16.586 53.858-16.586 17.884 0 35.799 4.998 51.557 15.035zM882.449 792.264h-729.924c-49.787 0-90.148-40.359-90.148-90.148v-505.269c0-49.783 40.361-90.146 90.148-90.146h729.924c49.789 0 90.152 40.363 90.152 90.146v505.269c0 49.789-40.363 90.148-90.152 90.148zM932.654 633.239v-409.581l-250.163 250.167 250.163 159.413zM102.32 223.659v426.751l254.069-172.682-254.069-254.069z" />
<glyph unicode="&#xe906;" glyph-name="facebook" d="M267.45 435.682h107.413v-442.203c0-8.731 7.075-15.802 15.805-15.802h182.123c8.73 0 15.805 7.071 15.805 15.802v440.12h123.481c8.029 0 14.784 6.025 15.701 14l18.754 162.797c0.515 4.479-0.904 8.965-3.9 12.325-3 3.364-7.292 5.288-11.797 5.288h-142.231v102.049c0 30.763 16.563 46.362 49.236 46.362 4.656 0 92.996 0 92.996 0 8.731 0 15.805 7.077 15.805 15.805v149.432c0 8.731-7.074 15.805-15.805 15.805h-128.162c-0.904 0.044-2.911 0.117-5.87 0.117-22.238 0-99.533-4.365-160.591-60.536-67.651-62.246-58.247-136.776-56-149.697v-119.334h-112.762c-8.731 0-15.805-7.074-15.805-15.805v-160.717c0-8.731 7.074-15.808 15.805-15.808z" />
<glyph unicode="&#xe907;" glyph-name="free-delivery" d="M716.314 603.353l-78.757 58.99-78.759-58.99c-3.324-2.495-7.733-2.899-11.453-1.028-3.71 1.849-6.049 5.646-6.049 9.781v245.004h-245.039v-539.769c25.318 13.83 53.648 24.842 88.495 33.063 12.296 2.757 24.422 5.128 36.645 7.517l2.008 0.392c43.026 8.397 87.52 17.077 139.802 41.824 22.231 10.514 40.535 10.165 54.374-1.016 11.049-8.96 18.018-23.751 17.755-37.679-0.207-11.246-4.966-20.927-13.391-27.252-47.382-35.521-86.087-52.677-123.514-69.262l-2.042-0.906c-7.7-3.419-15.173-6.737-22.573-10.177 70.225-44.253 216.243-18.269 324.76 1.061 24.166 4.332 47.776-10.173 54.951-33.64 0.293-0.953 0.555-1.908 0.786-2.865h124.534v638.709h-245.027v-245.004c0-4.135-2.341-7.932-6.049-9.781-1.554-0.788-3.228-1.16-4.89-1.16-2.32 0-4.628 0.733-6.565 2.188zM563.174 857.11v-223.146l67.818 50.794c1.946 1.455 4.256 2.188 6.563 2.188s4.616-0.723 6.563-2.188l67.818-50.794v223.146h-148.764zM289.938 288.323c-19.204-12.164-37.12-26.401-56.052-42.945-8.062-7.056-18.204-10.841-28.794-10.776l-47.229 0.744v-134.061h78.583c15.699 0 31.453-1.729 46.813-5.152l127.606-28.467c10.656-2.385 21.64-3.533 32.559-3.348l70.619 1.028c18.444 0.264 36.397 4.104 53.366 11.39l250.277 105.702c9.941 4.275 16.051 13.948 16.138 24.302-0.016 0.238-0.024 0.479-0.024 0.719 0 0.144 0.004 0.288 0.010 0.429-0.081 2.31-0.463 4.645-1.168 6.955-3.95 12.91-16.969 20.896-30.206 18.511-120.485-21.455-285.517-50.828-356.793 14.539-2.658 2.44-3.938 6.018-3.434 9.584 0.492 3.554 2.714 6.652 5.929 8.271 13.796 6.914 27.231 12.865 41.464 19.167l0.043 0.020c36.297 16.087 73.842 32.729 119.203 66.749 2.987 2.253 4.563 5.677 4.649 10.163 0.144 7.329-3.751 15.48-9.671 20.283-4.342 3.523-12.339 7.176-31.222-1.76-54.764-25.935-100.634-34.877-144.992-43.526l-1.026-0.201h-0.006c-12.347-2.41-24.586-4.799-36.886-7.55-39.712-9.364-69.988-22.258-97.471-39.337-0.697-0.567-1.463-1.050-2.286-1.434zM274.375 304.252v563.798c0 6.039 4.901 10.94 10.941 10.94h704.471c6.049 0 10.939-4.901 10.939-10.94v-660.59c0-6.049-4.89-10.939-10.939-10.939h-135.241c-3.273-14.836-13.442-27.806-28.325-34.2l-250.279-105.704c-19.551-8.403-40.304-12.833-61.615-13.139l-70.619-1.030c-0.754-0.010-1.542-0.010-2.32-0.010-11.869 0-23.739 1.302-35.302 3.883l-127.596 28.455c-13.794 3.064-27.951 4.628-42.053 4.628h-78.595v-62.391h-141.73v270.167h141.73v-29.97l47.481-0.75c5.185-0.25 10.108 1.871 14.133 5.384 18.237 15.935 35.954 30.066 54.92 42.407zM135.96 265.301h-97.969v-226.406h97.969v50.958c-0.007 0.163-0.011 0.329-0.011 0.494v156.093c0 0.163 0.004 0.327 0.011 0.49v18.371zM716.314 603.353l3.551 4.722-0.008 0.006-3.543-4.728zM727.769 602.325l-2.635 5.287-0.037-0.018 2.672-5.27zM733.818 857.11v5.908h-5.908v-5.908h5.908zM978.846 857.11h5.908v5.908h-5.908v-5.908zM978.846 218.401v-5.908h5.908v5.908h-5.908zM854.311 218.401l-5.74-1.392 1.093-4.515h4.647v5.908zM853.526 221.267l-5.65-1.727 0.002-0.006 5.648 1.733zM798.574 254.907l1.036-5.815h0.006l-1.042 5.815zM473.815 253.846l-2.489 5.358-9.838-4.571 9.179-5.786 3.149 4.998zM496.388 264.023v0zM498.43 264.928l-2.393 5.402-0.006-0.002 2.399-5.4zM621.944 334.19l3.545-4.726 0.002 0.002-3.547 4.724zM635.335 361.442v0zM617.58 399.122l3.72 4.588-0.008 0.006-3.712-4.594zM563.206 400.138l-2.525 5.341h-0.002l2.527-5.341zM423.404 358.313v0zM423.292 358.292l-1.13 5.799h-0.002l1.132-5.799zM421.396 357.921v0zM384.75 350.405l-1.292 5.764-0.065-0.014 1.357-5.75zM296.255 317.342h-5.908v-9.96l8.741 4.775-2.834 5.185zM296.255 857.11v5.908h-5.908v-5.908h5.908zM541.294 857.11h5.908v5.908h-5.908v-5.908zM547.344 602.325l2.655 5.278-0.020 0.010-2.635-5.287zM558.797 603.353l-3.541 4.728-0.004-0.002 3.545-4.726zM637.556 662.343l3.541 4.728-3.541 2.653-3.541-2.653 3.541-4.728zM563.174 857.11v5.908h-5.908v-5.908h5.908zM563.174 633.964h-5.908v-11.808l9.448 7.077-3.541 4.73zM630.993 684.759l-3.537 4.732-0.006-0.004 3.543-4.728zM644.12 684.759l-3.552-4.72 0.012-0.008 3.541 4.728zM711.938 633.964l-3.541-4.73 9.448-7.077v11.808h-5.908zM711.938 857.11h5.908v5.908h-5.908v-5.908zM292.224 289.757l-3.119 5.018-0.321-0.199-0.291-0.238 3.732-4.58zM289.938 288.323l-2.497 5.354-0.345-0.16-0.319-0.203 3.161-4.992zM389.695 329.094l-1.29 5.764-0.065-0.014 1.355-5.75zM426.581 336.644l1.132-5.799 0.065 0.014-1.197 5.786zM426.587 336.644l-1.13 5.799-0.065-0.014 1.195-5.786zM427.526 336.827l1.132-5.797h0.002l-1.134 5.797zM427.613 336.845l-1.13 5.799-0.004-0.002 1.134-5.797zM572.605 380.371v0zM603.827 382.131l3.724 4.586-0.002 0.002-3.722-4.588zM613.498 361.848v0zM608.849 351.685l3.545-4.726 0.014 0.010-3.558 4.716zM489.645 284.936l1.869-5.604 0.268 0.091 0.258 0.114-2.395 5.4zM489.645 284.936l-1.867 5.604-0.268-0.089-0.26-0.114 2.395-5.402zM489.602 284.916l2.391-5.402 0.002 0.002-2.393 5.4zM448.138 265.75l-2.647 5.281-0.010-0.004 2.656-5.278zM442.208 257.479l5.851-0.825 0.002 0.014-5.853 0.811zM445.643 247.895l-3.994-4.352 0.002-0.002 3.992 4.354zM802.436 233.356l1.036-5.817 0.012 0.002-1.048 5.815zM832.642 214.845v0zM833.81 207.89l5.902-0.226 0.010 0.215-0.008 0.217-5.904-0.205zM833.824 206.742l5.908-0.049 0.002 0.215-0.014 0.217-5.896-0.382zM817.686 182.439l2.298-5.441 0.035 0.014-2.334 5.427zM567.408 76.737l-2.3 5.441-0.032-0.014 2.332-5.427zM514.042 65.347l-0.085 5.908h-0.002l0.087-5.908zM443.424 64.319l-0.087 5.908h-0.014l0.1-5.908zM410.864 67.667l1.292 5.766h-0.006l-1.286-5.766zM283.258 96.134v0zM157.862 101.285h-5.908v-5.908h5.908v5.908zM157.862 235.347l0.093 5.908-6.001 0.095v-6.002h5.908zM205.091 234.602l-0.093-5.906 0.055-0.002 0.037 5.908zM233.886 245.378l-3.887 4.45-0.004-0.004 3.891-4.447zM274.375 304.252l3.222-4.951 2.686 1.747v3.204h-5.908zM854.546 196.521v5.908h-4.746l-1.022-4.636 5.768-1.272zM826.22 162.322l2.298-5.443 0.033 0.014-2.332 5.429zM575.941 56.617l-2.298 5.443-0.033-0.016 2.332-5.427zM514.326 43.479l-0.085 5.906h-0.002l0.087-5.906zM443.707 42.449l0.085-5.906h0.002l-0.087 5.906zM406.085 46.322v0zM278.489 74.778l1.286 5.766-0.006 0.002-1.28-5.768zM157.841 79.405v5.908h-5.908v-5.908h5.908zM157.841 17.014v-5.908h5.908v5.908h-5.908zM16.111 17.014h-5.908v-5.908h5.908v5.908zM16.111 287.181v5.908h-5.908v-5.908h5.908zM157.841 287.181h5.908v5.908h-5.908v-5.908zM157.841 257.211h-5.908v-5.817l5.815-0.091 0.093 5.908zM205.322 256.461l0.286 5.904-0.193 0.004-0.093-5.908zM219.455 261.845l3.883-4.452 0.004 0.004-3.887 4.448zM135.96 246.93l5.908-0.264v0.264h-5.908zM135.96 265.301h5.908v5.908h-5.908v-5.908zM135.96 89.852h5.913l-0.012 0.262-5.902-0.262zM135.96 38.894v-5.908h5.908v5.908h-5.908zM37.991 38.894h-5.908v-5.908h5.908v5.908zM37.991 265.301v5.908h-5.908v-5.908h5.908zM722.879 607.072c-1.075 0-2.131 0.339-3.015 1.002l-7.099-9.444c2.987-2.245 6.55-3.373 10.114-3.373v11.815zM725.096 607.594c-0.685-0.349-1.44-0.522-2.217-0.522v-11.815c2.546 0 5.142 0.571 7.562 1.798l-5.344 10.539zM727.91 612.106c0-1.902-1.079-3.647-2.777-4.494l5.272-10.575c5.717 2.851 9.32 8.698 9.32 15.069h-11.815zM727.91 857.11v-245.004h11.815v245.004h-11.815zM978.846 863.018h-245.027v-11.815h245.027v11.815zM984.753 218.401v638.709h-11.815v-638.709h11.815zM854.311 212.494h124.534v11.815h-124.534v-11.815zM847.878 219.534c0.258-0.839 0.488-1.682 0.693-2.525l11.483 2.783c-0.26 1.071-0.553 2.141-0.88 3.208l-11.296-3.466zM799.616 249.092c21.207 3.803 41.954-8.93 48.26-29.552l11.299 3.454c-8.046 26.313-34.519 42.592-61.645 37.728l2.085-11.63zM470.666 248.848c36.813-23.198 92.554-27.599 151.509-24.212 59.26 3.403 123.246 14.803 177.436 24.456l-2.072 11.632c-54.327-9.679-117.608-20.937-176.041-24.292-58.742-3.375-111.122 1.359-144.534 22.414l-6.298-9.998zM493.991 269.422c-7.692-3.417-15.212-6.754-22.666-10.218l4.978-10.715c7.347 3.413 14.773 6.711 22.483 10.134l-4.795 10.799zM496.032 270.328l-2.040-0.906 4.795-10.799 2.042 0.906-4.797 10.799zM618.401 338.918c-46.815-35.098-84.998-52.029-122.364-68.588l4.785-10.801c37.486 16.61 76.715 33.987 124.666 69.935l-7.087 9.454zM629.429 361.553c-0.177-9.568-4.173-17.489-11.032-22.636l7.093-9.45c9.99 7.499 15.512 18.944 15.752 31.868l-11.813 0.219zM613.858 394.533c9.671-7.843 15.797-20.915 15.571-32.979l11.813-0.223c0.297 15.791-7.515 32.299-19.942 42.378l-7.442-9.177zM565.732 394.797c21.087 9.974 36.724 8.946 48.134-0.272l7.426 9.19c-16.27 13.145-37.238 12.818-60.611 1.762l5.051-10.681zM424.535 352.516c43.043 8.399 88.186 17.189 141.2 42.283l-5.055 10.679c-51.551-24.401-95.397-32.975-138.407-41.366l2.263-11.597zM424.424 352.494l0.11 0.022-2.263 11.597-0.11-0.022 2.263-11.597zM422.528 352.124l1.898 0.37-2.267 11.597-1.898-0.372 2.267-11.595zM386.042 344.639c12.203 2.737 24.251 5.092 36.486 7.485l-2.267 11.595c-12.209-2.387-24.416-4.773-36.803-7.55l2.584-11.53zM299.089 312.157c24.818 13.558 52.645 24.389 87.018 32.498l-2.714 11.5c-35.322-8.334-64.154-19.527-89.97-33.631l5.665-10.368zM290.347 857.11v-539.769h11.815v539.769h-11.815zM541.294 863.018h-245.039v-11.815h245.039v11.815zM547.202 612.106v245.004h-11.815v-245.004h11.815zM549.979 607.612c-1.697 0.847-2.777 2.592-2.777 4.494h-11.815c0-6.37 3.602-12.217 9.32-15.069l5.272 10.575zM555.252 608.079c-1.54-1.156-3.549-1.333-5.254-0.477l-5.309-10.555c5.734-2.885 12.544-2.253 17.652 1.579l-7.089 9.452zM634.016 667.071l-78.759-58.99 7.083-9.456 78.757 58.988-7.081 9.458zM719.856 608.081l-78.759 58.99-7.081-9.458 78.757-58.988 7.083 9.456zM557.267 857.11v-223.146h11.815v223.146h-11.815zM566.715 629.234l67.818 50.796-7.083 9.456-67.818-50.794 7.083-9.458zM634.528 680.027c0.908 0.677 1.971 1.012 3.029 1.012v11.815c-3.56 0-7.113-1.13-10.1-3.363l7.072-9.464zM637.556 681.039c1.075 0 2.125-0.333 3.011-1l7.107 9.44c-3.009 2.265-6.575 3.375-10.118 3.375v-11.815zM640.579 680.031l67.818-50.796 7.083 9.458-67.818 50.794-7.083-9.456zM717.846 633.964v223.146h-11.815v-223.146h11.815zM711.938 863.018h-148.764v-11.815h148.764v11.815zM288.492 294.337c-0.323-0.262-0.675-0.484-1.052-0.66l4.996-10.707c1.268 0.591 2.448 1.335 3.519 2.206l-7.463 9.161zM388.34 334.844c-40.29-9.502-71.17-22.628-99.235-40.070l6.237-10.035c26.902 16.719 56.578 29.377 95.711 38.605l-2.712 11.5zM425.45 342.441c-12.335-2.406-24.653-4.811-37.045-7.584l2.58-11.53c12.209 2.731 24.367 5.104 36.728 7.517l-2.263 11.597zM425.387 342.43l-0.004-0.002 2.395-11.569h0.004l-2.395 11.571zM425.391 342.43h-0.004l2.395-11.571 0.002 0.002-2.393 11.569zM426.396 342.626l-0.939-0.183 2.263-11.597 0.939 0.183-2.263 11.597zM426.478 342.642l-0.085-0.016 2.267-11.597 0.087 0.018-2.269 11.595zM570.077 385.709c-54.036-25.588-99.263-34.422-143.594-43.065l2.261-11.599c44.384 8.655 90.898 17.707 146.391 43.985l-5.057 10.679zM607.549 386.72c-2.916 2.365-7.168 4.795-13.596 5.104-6.209 0.299-13.922-1.402-23.877-6.114l5.055-10.679c8.93 4.226 14.655 5.165 18.253 4.992 3.377-0.163 5.295-1.321 6.721-2.479l7.444 9.177zM619.406 361.734c0.179 9.24-4.594 19.092-11.855 24.984l-7.446-9.175c4.576-3.712 7.591-10.159 7.487-15.581l11.813-0.228zM612.407 346.969c4.716 3.56 6.882 8.854 6.999 14.763l-11.813 0.23c-0.059-3.058-1.046-4.614-2.302-5.561l7.117-9.433zM492.040 279.536c36.35 16.11 74.421 32.973 120.353 67.423l-7.089 9.452c-44.788-33.593-81.808-50.011-118.051-66.074l4.787-10.801zM491.514 279.331v0 0zM491.995 279.517l0.045 0.020-4.789 10.801-0.043-0.020 4.787-10.801zM450.784 260.468c13.651 6.841 26.957 12.737 41.208 19.046l-4.783 10.803c-14.216-6.294-27.776-12.3-41.718-19.287l5.293-10.563zM448.061 256.668c0.224 1.625 1.243 3.054 2.733 3.805l-5.313 10.555c-4.943-2.489-8.365-7.251-9.125-12.739l11.705-1.621zM449.638 252.249c-1.225 1.122-1.812 2.765-1.579 4.405l-11.701 1.65c-0.774-5.492 1.199-11.006 5.291-14.761l7.989 8.706zM801.4 239.171c-60.331-10.742-131.269-23.359-195.982-25.198-65.056-1.849-121.99 7.284-155.782 38.276l-7.985-8.708c37.482-34.375 98.702-43.238 164.102-41.379 65.745 1.871 137.565 14.667 197.719 25.377l-2.072 11.632zM838.29 216.574c-4.817 15.748-20.697 25.515-36.901 22.595l2.095-11.628c10.27 1.851 20.429-4.354 23.509-14.425l11.297 3.458zM839.713 208.095c-0.098 2.822-0.563 5.671-1.424 8.48l-11.297-3.458c0.553-1.81 0.851-3.633 0.912-5.431l11.809 0.41zM839.708 207.46c0 0.069 0.002 0.136 0.004 0.203l-11.806 0.455c-0.008-0.219-0.014-0.437-0.014-0.658h11.815zM839.719 207.124c-0.008 0.112-0.012 0.224-0.012 0.337h-11.815c0-0.37 0.014-0.736 0.037-1.101l11.79 0.764zM820.019 177.012c12.15 5.226 19.606 17.046 19.712 29.68l-11.815 0.098c-0.067-8.076-4.832-15.598-12.564-18.924l4.667-10.854zM569.706 71.294l250.277 105.704-4.596 10.884-250.277-105.704 4.596-10.884zM514.125 59.441c19.224 0.274 37.939 4.277 55.613 11.867l-4.661 10.856c-16.262-6.983-33.451-10.657-51.119-10.91l0.167-11.813zM443.508 58.411l70.619 1.030-0.171 11.813-70.619-1.028 0.171-11.815zM409.574 61.901c11.103-2.483 22.554-3.682 33.95-3.489l-0.201 11.815c-10.441-0.179-20.959 0.92-31.167 3.206l-2.582-11.532zM281.972 90.368l127.606-28.467 2.572 11.532-127.606 28.467-2.572-11.532zM236.446 95.378c15.267 0 30.59-1.682 45.529-5.012l2.57 11.534c-15.783 3.517-31.968 5.293-48.098 5.293v-11.815zM157.862 95.378h78.583v11.815h-78.583v-11.815zM151.955 235.347v-134.061h11.815v134.061h-11.815zM205.184 240.51l-47.228 0.744-0.186-11.815 47.229-0.742 0.185 11.813zM229.994 249.824c-6.985-6.114-15.732-9.372-24.867-9.314l-0.073-11.815c12.048-0.075 23.584 4.24 32.723 12.239l-7.782 8.891zM286.777 293.315c-19.558-12.388-37.728-26.843-56.779-43.487l7.775-8.899c18.814 16.441 36.478 30.464 55.326 42.403l-6.321 9.982zM280.283 304.252v563.798h-11.815v-563.798h11.815zM280.283 868.050c0 2.776 2.257 5.033 5.033 5.033v11.815c-9.303 0-16.849-7.546-16.849-16.848h11.815zM285.316 873.083h266.917v11.815h-266.917v-11.815zM552.233 873.083h170.646v11.815h-170.646v-11.815zM722.879 873.083h266.908v11.815h-266.908v-11.815zM989.787 873.083c2.783 0 5.031-2.252 5.031-5.033h11.815c0 9.298-7.53 16.848-16.847 16.848v-11.815zM994.818 868.050v-660.59h11.815v660.59h-11.815zM994.818 207.46c0-2.786-2.245-5.031-5.031-5.031v-11.815c9.312 0 16.847 7.534 16.847 16.847h-11.815zM989.787 202.429h-135.241v-11.815h135.241v11.815zM848.778 197.793c-2.877-13.034-11.808-24.422-24.891-30.045l4.665-10.856c16.685 7.17 28.093 21.721 31.764 38.355l-11.538 2.546zM823.92 167.763l-250.277-105.702 4.596-10.886 250.279 105.704-4.598 10.884zM573.609 62.045c-18.84-8.096-38.831-12.365-59.368-12.66l0.169-11.813c22.085 0.317 43.603 4.911 63.864 13.619l-4.665 10.854zM514.239 49.384l-70.619-1.028 0.173-11.813 70.619 1.028-0.173 11.813zM443.622 48.356c-0.705-0.010-1.449-0.010-2.235-0.010v-11.815c0.77 0 1.601 0 2.404 0.012l-0.169 11.813zM441.387 48.347c-11.439 0-22.879 1.254-34.016 3.742l-2.574-11.532c11.989-2.676 24.29-4.025 36.59-4.025v11.815zM407.371 52.088l-127.596 28.455-2.572-11.532 127.596-28.455 2.572 11.532zM279.769 80.545c-14.212 3.155-28.798 4.768-43.333 4.768v-11.815c13.666 0 27.394-1.516 40.773-4.486l2.56 11.534zM236.436 85.313h-78.595v-11.815h78.595v11.815zM151.933 79.405v-62.391h11.815v62.391h-11.815zM157.841 22.922h-141.73v-11.815h141.73v11.815zM22.018 17.014v270.167h-11.815v-270.167h11.815zM16.111 281.273h141.73v11.815h-141.73v-11.815zM151.933 287.181v-29.97h11.815v29.97h-11.815zM157.747 251.303l47.48-0.748 0.187 11.813-47.481 0.748-0.186-11.813zM205.034 250.561c7.038-0.343 13.403 2.554 18.304 6.831l-7.767 8.903c-3.149-2.747-6.632-4.094-9.964-3.933l-0.573-11.802zM223.342 257.396c18.119 15.833 35.606 29.769 54.254 41.905l-6.443 9.903c-19.281-12.548-37.23-26.872-55.585-42.912l7.775-8.897zM141.868 246.93v18.371h-11.815v-18.371h11.815zM141.857 246.439c0 0.077 0.002 0.152 0.005 0.226l-11.804 0.526c-0.011-0.25-0.017-0.5-0.017-0.752h11.815zM141.857 90.346v156.093h-11.815v-156.093h11.815zM141.862 90.114c-0.003 0.077-0.005 0.154-0.005 0.232h-11.815c0-0.252 0.006-0.504 0.017-0.754l11.804 0.522zM141.868 38.894v50.958h-11.815v-50.958h11.815zM37.991 32.987h97.969v11.815h-97.969v-11.815zM32.083 265.301v-226.406h11.815v226.406h-11.815zM135.96 271.208h-97.969v-11.815h97.969v11.815z" />
<glyph unicode="&#xe908;" glyph-name="grid-view" d="M154.417 930.263h156.345c80.485 0 145.799-65.498 145.799-145.798v-156.345c0-80.485-65.498-145.798-145.799-145.798h-156.345c-80.485 0-145.798 65.498-145.798 145.798v156.345c0 80.485 65.498 145.798 145.798 145.798zM381.071 628.12v156.345c0 38.67-31.639 70.124-70.124 70.124h-156.345c-38.67 0-70.124-31.454-70.124-70.124v-156.345c0-38.67 31.454-70.124 70.124-70.124h156.345c38.67 0 70.124 31.454 70.124 70.124zM681.667 930.263h156.345c80.482 0 145.798-65.498 145.798-145.798v-156.345c0-80.485-65.497-145.798-145.798-145.798h-156.345c-80.486 0-145.798 65.498-145.798 145.798v156.345c0 80.485 65.497 145.798 145.798 145.798zM908.322 628.12v156.345c0 38.67-31.642 70.124-70.124 70.124h-156.345c-38.673 0-70.124-31.454-70.124-70.124v-156.345c0-38.67 31.451-70.124 70.124-70.124h156.345c38.668 0 70.124 31.454 70.124 70.124zM310.762 413.676h-156.345c-80.3 0-145.798-65.312-145.798-145.798v-156.345c0-80.301 65.313-145.798 145.798-145.798h156.345c80.3 0 145.799 65.312 145.799 145.798v156.345c0 80.486-65.313 145.798-145.799 145.798zM381.071 267.878v-156.345c0-38.668-31.454-70.124-70.124-70.124h-156.345c-38.67 0-70.124 31.456-70.124 70.124v156.345c0 38.668 31.454 70.124 70.124 70.124h156.345c38.485 0.185 70.124-31.456 70.124-70.124zM681.667 413.676h156.345c80.482 0 145.798-65.312 145.798-145.798v-156.345c0-80.486-65.497-145.798-145.798-145.798h-156.345c-80.486 0-145.798 65.497-145.798 145.798v156.345c0 80.486 65.497 145.798 145.798 145.798zM908.322 111.533v156.345c0 38.668-31.642 70.31-70.124 70.124h-156.345c-38.673 0-70.124-31.456-70.124-70.124v-156.345c0-38.668 31.451-70.124 70.124-70.124h156.345c38.668 0 70.124 31.456 70.124 70.124z" />
<glyph unicode="&#xe909;" glyph-name="instagram" d="M978.881 782.69c12.19-32.508 20.319-65.016 24.381-117.841 4.067-48.762 4.067-65.016 4.067-199.109 0-134.095 0-150.352-4.067-199.114-4.062-52.824-12.19-85.333-24.381-117.838-12.19-32.51-28.443-56.891-56.886-85.333-24.381-28.448-52.829-44.7-85.333-56.891-32.51-12.19-65.019-20.319-117.843-24.381-48.762-4.062-65.014-4.062-199.109-4.062h-203.176c-52.825 4.062-85.333 12.19-117.841 24.381s-56.889 28.443-85.333 56.886c-28.445 28.448-44.699 56.891-52.826 89.4-12.19 32.505-20.317 65.014-24.381 117.838-4.063 48.762-4.063 65.019-4.063 199.114s0 150.348 4.063 199.109c0 52.826 8.127 89.397 20.317 121.905 12.19 28.445 28.444 56.889 56.889 85.333s56.889 44.699 85.333 56.889c32.508 12.19 69.079 20.317 121.905 20.317 48.762 4.064 65.016 4.064 199.112 4.064h203.171c52.829-4.064 85.333-12.19 117.843-24.381s56.891-28.444 85.333-56.889c28.443-28.444 44.7-56.889 52.824-89.397zM722.881 725.801c0-32.508 24.381-56.889 56.891-56.889s56.891 24.381 56.891 56.889c0 32.508-24.381 56.889-56.891 56.889s-56.891-24.381-56.891-56.889zM267.772 465.74c0-138.162 113.778-251.938 251.938-251.938 138.157 0 251.933 113.776 251.933 251.938 0 138.157-113.776 251.935-251.933 251.935-138.16 0-251.938-113.778-251.938-251.935zM682.247 465.72c0 89.768-72.772 162.54-162.538 162.54-89.77 0-162.541-72.771-162.541-162.54 0-89.766 72.771-162.538 162.541-162.538 89.766 0 162.538 72.772 162.538 162.538z" />
<glyph unicode="&#xe90a;" glyph-name="left-arrow" d="M44.521 424.718l455.084-313.019c8.621-6.037 20.046-6.68 29.316-1.721 9.27 4.954 15.306 14.658 15.306 25.22v284.347h446.893v56.912h-446.893v284.346c0 10.563-5.817 20.264-15.306 25.223-9.27 4.958-20.695 4.312-29.316-1.725l-455.084-312.802c-15.522-10.563-15.522-36.217 0-46.78zM487.316 706.908v-517.814l-382.434 258.906 382.434 258.908z" />
<glyph unicode="&#xe90b;" glyph-name="list-view" d="M116.544 785.584h109.418c56.344 0 102.111-45.767 102.111-102.111v-109.418c0-56.344-45.767-102.111-102.111-102.111h-109.418c-56.344 0-102.111 45.767-102.111 102.111v109.418c0 56.344 45.767 102.111 102.111 102.111zM275.191 574.247v109.418c0 27.114-22.115 49.036-49.229 49.036h-109.418c-26.922 0-49.036-21.922-49.036-49.036v-109.418c0-26.922 21.922-49.036 49.036-49.036h109.611c26.922 0 49.037 21.922 49.037 49.036zM485.997 785.584h411.522c56.344 0 102.11-45.767 102.304-102.111v-109.418c0-56.344-45.769-102.111-102.113-102.111h-411.713c-56.34 0-102.11 45.767-102.11 102.111v109.418c0 56.344 45.769 102.111 102.11 102.111zM946.749 574.247v109.418c0 27.114-22.115 49.036-49.039 49.036h-411.713c-26.921 0-49.036-21.922-49.036-49.036v-109.418c0-26.922 21.924-49.036 49.036-49.036h411.713c26.924 0 49.039 21.922 49.039 49.036zM225.963 424.066h-109.418c-56.344 0-102.111-45.766-102.111-102.11v-109.418c0-56.344 45.767-102.11 102.111-102.11h109.418c56.344 0 102.111 45.766 102.111 102.11v109.418c0 56.344-45.767 102.11-102.111 102.11zM275.191 322.15v-109.421c0-27.112-22.115-49.036-49.037-49.036h-109.611c-27.114 0-49.036 22.115-49.036 49.036v109.421c0 27.112 22.115 49.036 49.036 49.036h109.418c27.114 0 49.229-22.115 49.229-49.036zM485.997 424.066h411.522c56.344 0 102.11-45.766 102.304-102.11v-109.418c0-56.344-45.769-102.11-102.113-102.11h-411.713c-56.34 0-102.11 45.766-102.11 102.11v109.418c0 56.344 45.769 102.11 102.11 102.11zM946.749 212.729v109.421c0 26.921-22.115 49.036-49.039 49.036h-411.713c-26.921 0-49.036-21.924-49.036-49.036v-109.421c0-26.921 21.924-49.036 49.036-49.036h411.713c26.924 0 49.039 21.924 49.039 49.036z" />
<glyph unicode="&#xe90c;" glyph-name="location" d="M609.414 690.478v0zM395.928 690.478v0zM785.16 478.169l-35.627 16.798-0.016-0.035 35.643-16.762zM570.49 21.709l35.442-17.184 0.201 0.421-35.643 16.762zM542.184-8.96l-20.109 33.871-0.472-0.291 20.581-33.579zM462.568-8.96l-20.583-33.579 0.475-0.284 20.107 33.863zM435.44 21.709l35.858 16.297-0.236 0.5-35.623-16.798zM220.184 478.169v0zM637.263 449.142c36.868 36.868 55.769 82.464 55.769 134.592h-78.769c0-31.223-10.591-56.787-32.697-78.894l55.698-55.698zM693.031 583.734c0 52.128-18.901 97.725-55.769 134.593l-55.698-55.698c22.107-22.106 32.697-47.672 32.697-78.894h78.769zM637.263 718.327c-36.868 36.868-82.464 55.766-134.592 55.766v-78.769c31.223 0 56.787-10.589 78.894-32.695l55.698 55.698zM502.671 774.093c-52.128 0-97.725-18.898-134.593-55.766l55.698-55.698c22.107 22.106 47.672 32.695 78.894 32.695v78.769zM368.078 718.327c-36.868-36.868-55.766-82.465-55.766-134.593h78.769c0 31.223 10.589 56.788 32.695 78.894l-55.698 55.698zM312.312 583.734c0-52.128 18.898-97.724 55.766-134.592l55.698 55.698c-22.106 22.107-32.695 47.671-32.695 78.894h-78.769zM368.078 449.142c36.868-36.868 82.465-55.769 134.593-55.769v78.769c-31.223 0-56.788 10.591-78.894 32.697l-55.698-55.698zM502.671 393.374c52.128 0 97.724 18.901 134.592 55.769l-55.698 55.698c-22.107-22.107-47.672-32.697-78.894-32.697v-78.769zM765.235 583.734c0-39.261-5.998-68.193-15.703-88.768l71.251-33.591c16.246 34.465 23.221 75.914 23.221 122.359h-78.769zM749.517 494.931l-214.665-456.46 71.282-33.524 214.666 456.464-71.282 33.52zM535.053 38.892c-2.872-5.923-6.925-10.394-12.976-13.985l40.214-67.73c19.113 11.347 33.93 27.325 43.642 47.348l-70.88 34.367zM521.603 24.619c-6.059-3.714-12.118-5.4-18.932-5.4v-78.769c21.495 0 41.778 5.786 60.092 17.010l-41.16 67.159zM502.671 19.22c-6.831 0-13.284 1.701-19.995 5.687l-40.215-67.73c18.451-10.957 38.734-16.727 60.21-16.727v78.769zM483.15 24.619c-5.508 3.379-9.221 7.589-11.855 13.387l-71.709-32.595c9.161-20.153 23.534-36.384 42.402-47.951l41.162 67.159zM471.063 38.506l-215.257 456.464-71.245-33.599 215.256-456.46 71.245 33.595zM255.808 494.966c-9.701 20.578-15.701 49.506-15.701 88.768h-78.769c0-46.445 6.974-87.893 23.222-122.359l71.249 33.591zM240.107 583.734c0 72.898 25.333 134.045 76.926 185.638l-55.699 55.698c-66.355-66.355-99.997-147.533-99.997-241.336h78.769zM317.033 769.372c51.593 51.593 112.74 76.926 185.638 76.926v78.769c-93.803 0-174.981-33.642-241.336-99.997l55.699-55.698zM502.671 846.298c72.896 0 134.044-25.333 185.638-76.926l55.698 55.698c-66.355 66.355-147.531 99.997-241.336 99.997v-78.769zM688.309 769.372c51.594-51.593 76.926-112.74 76.926-185.638h78.769c0 93.803-33.642 174.981-99.998 241.336l-55.698-55.698z" />
<glyph unicode="&#xe90d;" glyph-name="minus" d="M153.6 448c0 32.563 26.419 58.982 58.982 58.982h598.835c32.563 0 58.982-26.419 58.982-58.982s-26.419-58.982-58.982-58.982h-598.63c-32.768-0.205-59.187 26.214-59.187 58.982z" />
<glyph unicode="&#xe90e;" glyph-name="navigation" d="M69.766 681.224c-27.741 0-50.344 22.603-50.344 50.343s22.603 50.549 50.344 50.344h483.096c27.737 0 50.341-22.603 50.341-50.344s-22.604-50.343-50.341-50.343h-483.096zM472.309 114.087c-27.74 0-50.343 22.604-50.343 50.345 0 27.737 22.603 50.55 50.343 50.341h483.096c27.737 0 50.341-22.604 50.341-50.341 0-27.741-22.604-50.345-50.341-50.345h-483.096zM69.97 498.344c-27.946 0.205-50.549-22.603-50.549-50.344s22.603-50.344 50.344-50.344h885.636c27.741 0 50.345 22.604 50.345 50.344s-22.399 50.344-50.345 50.344h-885.431z" />
<glyph unicode="&#xe90f;" glyph-name="phone-call" d="M968.463 121.826c-8.481-45.55-30.563-87.154-64.277-120.675-85.775-85.371-192.645-61.32-284.527-26.618-274.272 103.52-492.546 337.763-582.261 580.883-20.112 54.618-39.632 118.503-28.196 181.599 7.098 39.238 25.633 74.138 55.209 103.32 86.166 85.772 235.034 87.941 303.849 8.282 138.29-159.776-8.24-302.331-11.961-305.952-0.036-0.034-0.058-0.056-0.067-0.065 38.646-88.532 159.91-209.401 250.609-249.428 0.789 0.988 147.293 152.812 306.61 11.041 45.941-40.815 67.433-114.953 55.013-182.386zM120.015 585.189c49.097-121.658 187.317-391.984 529.418-528.038 96.419-38.249 151.63-34.9 192.638 6.313 70.391 70.391 35.298 157.148 9.071 178.64-97.208 79.854-176.869-4.144-195.006-26.425-11.439-14.191-29.576-21.492-47.128-16.559-129.543 35.689-314.296 220.638-346.634 347.028-4.535 17.548 1.775 36.872 16.957 46.731 21.492 13.802 107.461 101.546 27.013 193.627-43.971 50.083-127.967 43.181-180.022-8.479-16.76-16.76-59.153-62.11-6.31-192.838zM564.055 859.267c0 22.281 17.943 40.224 40.226 40.224 191.651 0 347.425-155.769 347.425-347.424 0-22.281-17.944-40.224-40.225-40.224s-40.225 17.943-40.225 40.224c0 147.093-119.886 266.976-266.975 266.976-22.283 0-40.226 17.943-40.226 40.224zM796.527 552.059c0-22.28-17.944-40.223-40.424-40.026-22.281 0-40.225 17.943-40.225 40.224 0 61.716-50.080 111.799-111.797 111.799-22.281 0-40.224 17.943-40.224 40.224s17.943 40.224 40.224 40.224c106.080 0 192.446-86.363 192.446-192.444z" />
<glyph unicode="&#xe910;" glyph-name="plus" d="M487.265 887.344c47.129 0 85.333-38.205 85.333-85.333v-187.803c0-47.129 38.205-85.333 85.333-85.333h174.776c44.183 0 80-35.817 80-80s-35.817-80-80-80h-174.776c-47.128 0-85.333-38.205-85.333-85.333v-189.554c0-47.13-38.205-85.333-85.333-85.333h-4.196c-47.129 0-85.334 38.204-85.334 85.333v189.554c0 47.128-38.205 85.333-85.333 85.333h-173.027c-44.183 0-80 35.817-80 80s35.817 80 80 80h173.027c47.129 0 85.333 38.205 85.333 85.333v187.803c0 47.128 38.205 85.333 85.333 85.333h4.197z" />
<glyph unicode="&#xe911;" glyph-name="return" d="M765.131 823.652h-692.228l83.449 83.478h525.329l83.449-83.478zM8.548 818.304c-4.249-3.821-6.923-9.361-6.923-15.521v-166.957c0-11.52 9.35-20.87 20.87-20.87h20.87v-438.261c0-34.518 28.090-62.609 62.609-62.609h584.348c11.52 0 20.87 9.35 20.87 20.87s-9.35 20.87-20.87 20.87h-584.348c-11.478 0-20.87 9.392-20.87 20.87v438.261h667.826v-106.852c0-11.52 9.35-20.87 20.87-20.87s20.87 9.35 20.87 20.87v106.852h20.87c11.52 0 20.87 9.35 20.87 20.87v166.316c0.176 5.561-1.857 11.179-6.095 15.416l-125.217 125.217c-3.922 3.882-9.223 6.094-14.775 6.094h-542.609c-5.551 0-10.852-2.212-14.734-6.136l-124.43-124.43zM794.669 656.696h-751.304v125.217h751.304v-125.217zM781.103 160.835l-146.087 125.217c-3.319 2.845-5.605 6.574-6.654 10.676-0.43 1.678-0.65 3.417-0.65 5.185v0c0 1.523 0.165 3.025 0.483 4.486 0.959 4.379 3.315 8.37 6.821 11.375l146.087 125.217c8.724 7.428 21.829 6.427 29.427-2.295 7.513-8.724 6.469-21.914-2.295-29.427l-103.246-88.487h27.071c149.593 0 271.304-121.711 271.304-271.304v-83.478c0-11.52-9.35-20.87-20.87-20.87s-20.87 9.35-20.87 20.87v83.478c0 126.553-103.012 229.565-229.565 229.565h-27.071l103.246-88.487c8.764-7.513 9.766-20.703 2.295-29.427-4.174-4.799-9.975-7.304-15.861-7.304-4.799 0-9.641 1.627-13.566 5.009zM314.669 531.478h208.696c11.52 0 20.87-9.35 20.87-20.87s-9.35-20.87-20.87-20.87h-208.696c-11.52 0-20.87 9.35-20.87 20.87s9.35 20.87 20.87 20.87z" />
<glyph unicode="&#xe912;" glyph-name="ribbon" d="M978.714 414.947l19.065-26.112c21.966-30.255 12.642-73.151-19.894-90.975l-28.182-15.748c-23.419-12.85-35.852-39.374-31.086-65.691l5.803-31.707c6.839-36.681-20.101-71.289-57.608-73.359l-32.33-1.865c-26.733-1.66-49.527-20.101-56.571-45.798l-8.496-31.086c-9.948-36.265-49.323-55.538-83.931-41.239l-29.839 12.226c-24.663 10.156-53.053 3.317-70.665-16.784l-21.138-24.452c-24.66-28.185-68.388-28.598-93.46-0.624l-21.554 24.039c-18.029 19.894-46.418 26.112-71.081 15.543l-29.634-12.85c-34.605-14.919-74.187 3.73-84.548 39.79l-8.911 31.083c-7.46 25.696-30.463 43.933-57.195 44.969l-32.328 1.452c-37.508 1.449-65.070 35.641-58.853 72.53l5.595 31.704c4.352 26.32-8.496 52.637-32.121 65.278l-28.391 15.335c-33.157 17.821-43.104 60.304-21.552 90.975l18.651 26.317c15.335 21.966 15.128 51.188-0.622 72.738l-19.065 26.112c-22.174 30.255-12.641 72.943 20.101 91.179l28.183 15.751c23.417 12.847 35.851 39.373 31.085 65.691l-5.802 31.706c-6.839 36.68 20.101 71.287 57.61 73.359l32.328 1.865c26.733 1.451 49.321 19.894 56.159 46.005l8.496 31.085c9.947 36.265 49.321 55.538 83.928 41.239l29.842-12.227c24.66-10.154 53.049-3.316 70.665 16.786l21.138 24.453c24.66 28.183 68.385 28.598 93.46 0.622l21.551-24.039c18.032-20.101 46.421-26.318 71.081-15.749l29.634 12.848c34.608 14.921 74.187-3.73 84.548-39.788l8.912-31.085c7.46-25.697 30.462-43.933 57.195-44.969l32.327-1.451c37.509-1.451 65.071-35.644 58.855-72.531l-5.39-31.913c-4.35-26.318 8.499-52.635 32.123-65.277l28.39-15.335c33.156-17.821 43.104-60.304 21.554-90.975l-18.652-26.317c-15.335-21.966-15.127-51.188 0.621-72.738zM186.061 447.69c0-180.705 146.512-327.218 327.217-327.218 180.702 0 327.215 146.513 327.215 327.218 0 180.702-146.513 327.215-327.215 327.215-180.705 0-327.217-146.513-327.217-327.215zM442.393 468.207c-17.2 17.408-45.382 17.408-62.79 0.208s-17.408-45.382-0.208-62.79l29.013-29.221 32.327-32.327c16.784-16.992 44.141-16.992 61.133-0.205l145.060 144.232c17.408 17.2 17.408 45.382 0.208 62.79s-45.382 17.408-62.79 0.208l-112.941-112.112-29.013 29.218z" />
<glyph unicode="&#xe913;" glyph-name="right-arrow" d="M979.48 471.282l-455.085 313.018c-8.621 6.036-20.046 6.683-29.316 1.725-9.272-4.958-15.308-14.659-15.308-25.222v-284.346h-446.891v-56.912h446.891v-284.347c0-10.562 5.821-20.265 15.308-25.22 9.27-4.959 20.695-4.315 29.316 1.721l455.085 312.803c15.521 10.563 15.521 36.217 0 46.78zM536.683 189.094v517.814l382.435-258.908-382.435-258.906z" />
<glyph unicode="&#xe914;" glyph-name="right-sign" d="M973.234 732.077c-28.515 30.065-76.047 31.389-106.165 2.804l-479.419-454.668-228.671 234.782c-28.962 29.715-76.448 30.366-106.188 1.4-29.714-28.936-30.34-76.473-1.404-106.188l280.364-287.851c14.693-15.095 34.219-22.703 53.796-22.703 18.575 0 37.15 6.861 51.693 20.6l533.192 505.657c30.088 28.539 31.358 76.075 2.801 106.167z" />
<glyph unicode="&#xe915;" glyph-name="search" d="M737.203 207.258c-83.657-83.665-193.31-125.491-302.959-125.491-109.646 0-219.299 41.826-302.958 125.491-167.319 167.317-167.319 438.598 0 605.917 83.66 83.66 193.312 125.492 302.958 125.492 109.649 0 219.302-41.832 302.959-125.492 167.322-167.319 167.322-438.6 0-605.917zM434.244 877.83c-98.191 0-190.507-38.238-259.941-107.672s-107.672-161.75-107.672-259.941c0-98.193 38.238-190.507 107.672-259.942s161.75-107.674 259.941-107.674c98.193 0 190.511 38.238 259.942 107.674 69.436 69.427 107.674 161.749 107.674 259.942 0 98.191-38.238 190.507-107.674 259.941-69.427 69.434-161.749 107.672-259.942 107.672zM324.604 725.233c-11.963-6.12-26.622-1.37-32.737 10.597s-1.375 26.627 10.592 32.742c41.052 20.98 85.391 31.616 131.786 31.616 92.292 0 179.908-44.563 234.377-119.201 7.923-10.855 5.542-26.080-5.312-34-4.326-3.155-9.348-4.677-14.323-4.677-7.509-0.005-14.912 3.458-19.678 9.987-45.338 62.129-118.259 99.221-195.063 99.221-38.621 0-75.514-8.842-109.641-26.286zM835.482 206.195l165.696-165.696c16.627-16.631 16.627-43.593 0-60.224l-10.47-10.47c-16.631-16.627-43.593-16.627-60.224 0l-165.747 165.751c12.625 11.174 24.99 22.729 37.018 34.756 11.691 11.686 22.895 23.676 33.728 35.883z" />
<glyph unicode="&#xe916;" glyph-name="support" d="M869.392 609.714c0 193.458-156.83 350.286-350.286 350.286-193.458 0-350.285-156.828-350.285-350.286-50.013-6.226-97.301-38.92-97.301-114.815v-182.927c0-85.625 59.938-116.761 116.762-116.761h56.435c10.747 0 19.461 8.712 19.461 19.46v376.75c0 10.748-8.714 19.46-19.461 19.46h-36.975c0 171.962 139.404 311.365 311.365 311.365s311.364-139.404 311.364-311.365h-36.975c-10.746 0-19.46-8.712-19.46-19.46v-376.166c0-10.748 8.714-19.46 19.46-19.46h36.975c-5.448-133.691-69.667-165.024-197.911-170.666v13.038c0 21.496-17.424 38.92-38.92 38.92h-122.405c-21.496 0-38.92-17.424-38.92-38.92v-63.246c0-21.496 17.424-38.92 38.92-38.92h122.794c21.496 0 38.92 17.424 38.92 38.92v11.287c123.378 5.644 230.021 31.138 236.444 210.756 50.012 6.228 97.3 38.92 97.3 114.815v182.927c0 76.284-47.094 108.784-97.3 115.010zM225.256 573.323v-338.608h-37.948c-28.801 0-77.841 10.119-77.841 77.84v182.927c0 67.138 48.456 77.84 77.841 77.84h37.948zM594.029 4.305v-29.579h-122.794v63.246h122.794v-33.667zM927.773 311.972c0-67.138-48.456-77.84-77.842-77.84h-36.973v337.83h37.947c28.801 0 77.84-10.119 77.84-77.84l-0.973-182.149z" />
<glyph unicode="&#xe917;" glyph-name="twitter" d="M964.107 749.228c-15.392-6.828-31.221-12.59-47.39-17.268 19.143 21.653 33.743 47.13 42.652 75.010 1.999 6.249-0.075 13.090-5.212 17.177-5.131 4.090-12.256 4.58-17.904 1.233-34.347-20.369-71.4-35.008-110.247-43.568-39.138 38.242-92.295 60.005-147.246 60.005-115.992 0-210.358-94.364-210.358-210.353 0-9.135 0.579-18.22 1.723-27.178-143.935 12.638-277.748 83.383-369.638 196.1-3.275 4.018-8.32 6.183-13.485 5.769-5.168-0.405-9.812-3.319-12.423-7.798-18.637-31.98-28.49-68.555-28.49-105.769 0-50.686 18.097-98.777 50.064-136.355-9.72 3.366-19.153 7.574-28.155 12.571-4.833 2.69-10.732 2.649-15.533-0.105-4.805-2.753-7.817-7.817-7.944-13.352-0.022-0.932-0.022-1.865-0.022-2.81 0-75.658 40.719-143.774 102.975-180.899-5.349 0.534-10.693 1.309-16.004 2.323-5.475 1.046-11.104-0.873-14.796-5.048-3.698-4.173-4.922-9.988-3.218-15.299 23.044-71.943 82.372-124.862 154.094-140.993-59.486-37.263-127.513-56.778-198.926-56.778-14.901 0-29.887 0.878-44.554 2.614-7.286 0.868-14.253-3.438-16.734-10.364-2.481-6.936 0.149-14.665 6.347-18.637 91.741-58.821 197.82-89.913 306.763-89.913 214.169 0 348.149 100.993 422.825 185.716 93.119 105.644 146.529 245.475 146.529 383.638 0 5.772-0.086 11.601-0.264 17.411 36.74 27.681 68.371 61.181 94.111 99.684 3.907 5.848 3.487 13.577-1.046 18.96-4.522 5.386-12.062 7.128-18.497 4.277z" />
<glyph unicode="&#xe918;" glyph-name="up-arrow" d="M488.448 634.163l-325.222-325.222c-6.349-6.349-9.626-14.336-9.626-23.552s3.482-17.203 9.626-23.552c13.107-12.902 34.202-12.902 47.104 0l301.875 301.875 301.875-301.875c13.107-12.902 34.202-12.902 47.104 0 12.493 12.493 12.493 34.406 0 47.104l-325.427 325.222c-13.107 12.902-33.997 12.902-47.309 0z" />
<glyph unicode="&#xe919;" glyph-name="user" d="M513.284 375.595c-75.255 0-145.955 29.342-199.075 82.462-53.247 53.248-82.463 123.948-82.463 199.075s29.342 145.954 82.463 199.075c53.12 53.12 123.947 82.463 199.075 82.463 75.251 0 145.954-29.343 199.074-82.463 53.248-53.247 82.462-123.948 82.462-199.075s-29.342-145.955-82.462-199.075c-53.12-53.12-123.823-82.462-199.074-82.462zM513.284 857.85c-110.668 0-200.593-90.051-200.593-200.592s90.051-200.593 200.593-200.593c110.665 0 200.593 90.052 200.593 200.593s-89.929 200.592-200.593 200.592zM199.874-42.662l-79.301 16.188c18.339 89.796 67.665 171.503 138.745 230.187 35.414 29.218 75.127 51.981 118.003 67.665 44.393 16.316 91.063 24.538 138.746 24.538 47.3 0 93.594-8.094 137.732-24.158 42.624-15.428 82.082-37.815 117.372-66.654 70.699-57.673 120.277-138.24 139.503-226.897l-79.049-17.203c-15.428 70.827-55.019 135.206-111.552 181.367-28.203 23.019-59.695 40.853-93.717 53.248-35.162 12.774-72.222 19.226-110.037 19.226-74.747 0-147.724-26.18-205.271-73.737-57.041-46.797-96.502-112.060-111.173-183.77z" />
<glyph unicode="&#xe91a;" glyph-name="wishlist" d="M538.336 43.789c-16.133 0.76-31.948 4.754-46.508 11.744s-27.569 16.826-38.255 28.936l-326.616 330.187c-38.26 47.652-74.404 92.874-74.404 180.402-0.049 141.627 114.708 256.478 256.328 256.534 52.903 0.020 104.518-16.323 147.768-46.787 5.883-4.175 9.869-10.514 11.084-17.625s-0.44-14.414-4.603-20.305c-4.151-5.911-10.479-9.931-17.593-11.177s-14.432 0.383-20.345 4.53c-91.387 64.097-217.439 41.969-281.536-49.428-23.819-33.959-36.612-74.424-36.643-115.904 0-64.834 22.368-96.117 61.753-145.875l323.375-326.776c11.48-13.975 28.027-22.83 46.021-24.641 9.020 0.728 17.794 3.304 25.77 7.567 7.982 4.268 14.994 10.132 20.604 17.23l324.171 327.412c37.748 39.040 59.3 90.94 60.303 145.239 0.049 111.543-90.322 202.011-201.868 202.066-50.494 0.027-99.166-18.86-136.424-52.942l-137.447-137.452c-5.202-5.030-12.189-7.788-19.425-7.667s-14.126 3.112-19.156 8.314c-5.030 5.202-7.788 12.189-7.667 19.424s3.112 14.126 8.314 19.157l138.258 138.259c104.071 96.052 266.294 89.562 362.356-14.506 43.736-47.391 68.015-109.519 67.999-174.006-1.434-68.151-28.591-133.238-76.019-182.198l-324.188-328.224c-10.687-12.337-23.768-22.372-38.449-29.502-14.681-7.136-30.655-11.21-46.961-11.986z" />
<glyph unicode="&#xe91b;" glyph-name="world-wide-shipping" d="M589.718 338.731c0.968-0.157 1.935-0.247 2.903-0.247 3.398 0 6.752 1.046 9.574 3.016l311.627 218.208c3.623 2.543 6.086 6.414 6.863 10.778 0.766 4.355-0.225 8.844-2.767 12.467l-199.284 284.601c-5.299 7.561-15.717 9.372-23.245 4.095l-311.625-218.196c-7.55-5.289-9.383-15.696-4.096-23.245l199.282-284.612c2.531-3.623 6.414-6.088 10.767-6.864zM596.717 378.426l-180.134 257.26 284.286 199.058 180.132-257.26-284.285-199.057zM993.56 453.224c7.504 5.356 17.911 3.657 23.291-3.837 5.378-7.494 3.645-17.923-3.837-23.301l-365.15-261.728c20.647-43.273 7.729-96.502-32.819-124.911-17-11.916-36.825-18.115-57.156-18.115-5.84 0-11.713 0.507-17.585 1.541-26.307 4.647-49.236 19.251-64.56 41.134-28.387 40.538-22.333 94.95 11.825 128.568l-368.784 533.952c-20.635 31.031-48.763 38.119-88.671 22.581-8.585-3.33-18.261 0.9-21.614 9.496-3.342 8.596 0.911 18.272 9.496 21.614 69.049 26.891 107.945-4.163 128.422-34.958l368.501-533.535c18.609 8.854 39.424 11.814 60.126 8.168 20.681-3.645 39.211-13.536 53.658-28.196l364.856 261.524zM503.084 83.171c21.084-30.121 62.737-37.444 92.81-16.372 30.087 21.074 37.434 62.715 16.36 92.812-10.216 14.582-25.496 24.325-43.025 27.409-3.915 0.696-7.82 1.034-11.713 1.034-13.546 0-26.743-4.128-38.074-12.061-30.097-21.084-37.432-62.725-16.358-92.822z" />
<glyph unicode="&#xe91c;" glyph-name="youtube" d="M960.218 675.586c-11.268 41.612-43.996 74.338-85.606 85.608-76.074 20.806-380.144 20.806-380.144 20.806s-304.069 0-380.14-19.939c-40.745-11.27-74.338-44.863-85.608-86.475-19.939-76.072-19.939-233.634-19.939-233.634s0-158.429 19.939-233.635c11.27-41.61 43.996-74.338 85.608-85.606 76.722-20.805 380.14-20.805 380.14-20.805s304.070 0 380.144 19.937c41.61 11.273 74.338 43.996 85.606 85.611 19.941 76.070 19.941 233.632 19.941 233.632s0.864 158.429-19.941 234.5zM397.591 296.31v291.284l252.92-145.642-252.92-145.643z" />
<glyph unicode="&#xe91d;" glyph-name="zoom" d="M771.255 264.079l236.754-236.743c14.735-14.735 14.735-38.61 0.005-53.34-7.367-7.367-17.020-11.048-26.673-11.048s-19.305 3.681-26.667 11.048l-236.76 236.754c-70.769-58.848-161.646-94.3-260.656-94.3-225.141 0-408.306 183.156-408.306 408.287 0 225.146 183.165 408.316 408.306 408.316 225.134 0 408.301-183.169 408.301-408.316 0-99.015-35.452-189.889-94.305-260.658zM457.26 857.618c-183.547 0-332.871-149.33-332.871-332.881 0-183.535 149.325-332.85 332.871-332.85 183.543 0 332.864 149.315 332.864 332.85 0 183.551-149.321 332.881-332.864 332.881zM494.972 562.474v147.57c0 20.83-16.882 37.717-37.717 37.717s-37.717-16.887-37.717-37.717v-147.575h-147.57c-20.835 0-37.717-16.887-37.717-37.717s16.882-37.717 37.717-37.717h147.57v-147.579c0-20.83 16.882-37.716 37.717-37.716s37.717 16.885 37.717 37.716v147.584h147.577c20.83 0 37.716 16.887 37.716 37.717s-16.885 37.717-37.716 37.717h-147.577z" />
<glyph unicode="&#xe91e;" glyph-name="Confirm-order" d="M971.386 415.437l18.782-25.725c21.641-29.808 12.455-72.070-19.598-89.627l-27.768-15.517c-23.070-12.658-35.318-38.79-30.623-64.719l5.717-31.237c6.736-36.137-19.806-70.231-56.76-72.274l-31.849-1.836c-26.337-1.633-48.795-19.806-55.736-45.121l-8.372-30.625c-9.798-35.728-48.59-54.714-82.684-40.628l-29.401 12.046c-24.294 10.003-52.264 3.267-69.62-16.536l-20.825-24.091c-24.294-27.768-67.374-28.175-92.078-0.614l-21.232 23.684c-17.763 19.598-45.733 25.725-70.029 15.313l-29.194-12.658c-34.097-14.701-73.091 3.674-83.299 39.199l-8.779 30.623c-7.35 25.318-30.012 43.283-56.349 44.304l-31.849 1.429c-36.953 1.429-64.107 35.116-57.982 71.458l5.513 31.237c4.287 25.927-8.371 51.857-31.645 64.312l-27.97 15.108c-32.666 17.558-42.466 59.409-21.233 89.627l18.375 25.927c15.108 21.641 14.904 50.428-0.612 71.663l-18.783 25.725c-21.845 29.806-12.454 71.865 19.804 89.83l27.766 15.517c23.070 12.658 35.32 38.792 30.624 64.719l-5.716 31.237c-6.737 36.137 19.804 70.232 56.757 72.274l31.849 1.837c26.337 1.429 48.591 19.6 55.327 45.324l8.372 30.625c9.8 35.729 48.59 54.716 82.687 40.628l29.399-12.045c24.296-10.004 52.266-3.267 69.62 16.537l20.825 24.091c24.296 27.766 67.374 28.175 92.078 0.613l21.234-23.683c17.76-19.804 45.73-25.929 70.027-15.517l29.196 12.658c34.094 14.7 73.089-3.675 83.299-39.199l8.779-30.625c7.348-25.316 30.011-43.282 56.347-44.303l31.849-1.429c36.954-1.429 64.107-35.116 57.983-71.457l-5.307-31.44c-4.288-25.93 8.369-51.859 31.644-64.312l27.97-15.108c32.666-17.558 42.466-59.412 21.234-89.627l-18.375-25.93c-15.11-21.641-14.905-50.428 0.612-71.66zM190.462 447.693c0-178.029 144.344-322.373 322.375-322.373 178.029 0 322.373 144.344 322.373 322.373 0 178.031-144.344 322.374-322.373 322.374-178.031 0-322.375-144.343-322.375-322.374zM443.012 467.906c-16.946 17.151-44.711 17.151-61.862 0.205-17.148-16.946-17.148-44.711-0.202-61.862l28.582-28.787 31.849-31.849c16.539-16.741 43.488-16.741 60.229-0.205l142.913 142.099c17.151 16.943 17.151 44.711 0.205 61.86-16.946 17.151-44.711 17.151-61.862 0.205l-111.269-110.452-28.582 28.787z" />
<glyph unicode="&#xe9d9;" glyph-name="Shipping-method" d="M887 514.2l20.4-0.2c46.8-0.4 84.6-38.4 84.6-85.4v-142.4c0-12-9.8-21.6-21.8-21.6h-21.8c-3.4 93.4-80 168.4-174.2 168.4s-170.8-75-174.2-168.4h-146c-6.4 0-12.6 2.8-16.8 7.8s-5.8 11.6-4.6 18l88.8 456.2c2 10.2 10.8 17.6 21.2 17.6h223.4c9.2 0 17.4-5.8 20.4-14.4l80.2-221.4c3.2-8.4 11.2-14 20.4-14.2zM778.2 576.4c4 0 7.6 1.8 10 5s3.2 7.2 2 11l-33.2 112.6c-1.6 5.4-6.4 9-12 9h-173.2c-6.2 0-11.4-4.4-12.4-10.4l-18.8-112.6c-0.6-3.6 0.4-7.4 2.8-10.2s5.8-4.4 9.6-4.4h225.2zM258.8 676.4h135.8c18 0 32.4-14.6 32.4-32.4s-14.4-32.4-32.4-32.4h-135.8c-18 0-32.4 14.6-32.4 32.4s14.6 32.4 32.4 32.4zM362.2 546.8h-200.6c-18 0-32.4-14.6-32.4-32.4s14.4-32.4 32.4-32.4h200.6c18 0 32.4 14.6 32.4 32.4s-14.6 32.4-32.4 32.4zM329.8 417.2h-265.4c-18 0-32.4-14.6-32.4-32.4s14.4-32.4 32.4-32.4h265.4c18 0 32.4 14.6 32.4 32.4s-14.6 32.4-32.4 32.4zM774.2 384.4c-69.6 0-126.2-56.6-126.2-126.2s56.6-126.2 126.2-126.2c69.6 0 126.2 56.6 126.2 126.2s-56.6 126.2-126.2 126.2zM774.2 196.6c-33.8 0-61.4 27.6-61.4 61.4s27.6 61.4 61.4 61.4c33.8 0 61.4-27.6 61.4-61.4s-27.4-61.4-61.4-61.4z" />
<glyph unicode="&#xe9dd;" glyph-name="Billing-address" d="M915.062 554.668c0 223.871-181.484 405.332-405.332 405.332-223.873 0-405.334-181.461-405.334-405.332 0-0.62 0.085-1.26 0.085-1.879-0.171-4.544-0.363-17.94 1.963-38.976 0.064-0.724 0.192-1.449 0.277-2.196 1.003-8.62 2.475-18.452 4.48-29.356 1.131-6.208 2.368-12.352 3.776-18.432 25.344-113.364 110.656-318.080 394.666-527.616 0.023-0.084 0.044-0.128 0.064-0.212 0.023 0.044 0.064 0.044 0.108 0.084 0.020-0.041 0.064-0.041 0.084-0.084 0.023 0.084 0.044 0.128 0.064 0.212 287.872 212.416 371.584 419.799 395.648 532.16 0.599 2.839 1.239 5.676 1.772 8.535 9.644 48.937 7.68 77.76 7.68 77.76zM539.062 360.212v-66.24h-63.68v61.719c-43.54 1.92-85.78 13.673-110.484 27.968l19.52 76.009c27.284-14.912 65.62-28.564 107.86-28.564 37.1 0 62.42 14.292 62.42 40.276 0 24.704-20.82 40.3-68.884 56.535-69.588 23.401-116.972 55.872-116.972 118.912 0 57.215 40.236 102.036 109.783 115.69v61.696h63.68v-57.152c43.584-1.984 72.852-11.093 94.228-21.461l-18.86-73.428c-16.832 7.168-46.676 22.121-93.524 22.121-42.284 0-55.956-18.217-55.956-36.416 0-21.417 22.761-35.113 78.016-55.892 77.353-27.308 108.521-63.040 108.521-121.556 0-57.836-40.916-107.18-115.668-120.215z" />
<glyph unicode="&#xe9f0;" glyph-name="Shipping-address" d="M520.69 237.247c-45.104-0.202-271.021 338.369-271.021 451.734 0 149.63 121.389 271.020 271.021 271.020 149.629 0 271.019-121.39 271.019-271.020 0-25.903-12.191-64.098-31.491-107.576h93.050c24.38 0 44.797-17.166 49.673-40.124h0.202l113.67-526.601c5.993-27.529-11.58-54.65-39.108-60.644-3.556-0.814-7.211-1.118-10.766-1.118h-893.412c-28.24 0-51.095 22.858-51.095 50.995 0 4.773 0.711 9.344 1.828 13.815l111.943 523.042c5.384 25.193 28.341 41.956 53.229 40.329h27.021c13.511-31.997 30.373-66.534 49.267-101.683h-38.296l-28.037-131.041 92.539 56.073 11.785 7.925c8.636-14.629 17.573-29.153 26.513-43.477l-9.956-6.704-85.633-51.806 264.824-255.377h404.497l-22.551 104.528c-58.106 14.933-205.298 89.902-295.706 137.136-29.355-36.267-53.33-59.426-65.010-59.426zM708.005 479.721c-28.848-50.486-61.457-100.767-91.625-142.416 77.608-40.838 204.481-106.763 252.735-122.103l-57.091 264.519h-104.018zM425.913 55.009l-239.936 231.302-49.47-231.404 289.406 0.102zM520.69 576.023c62.37 0 112.959 50.586 112.959 112.957s-50.588 112.959-112.959 112.959c-62.373 0-112.961-50.588-112.961-112.959 0.102-62.372 50.588-112.957 112.961-112.957z" />
<glyph unicode="&#xe9ff;" glyph-name="Payment-method" d="M928.784 668.446l-46.331 179.165c-12.358 52.536-67.983 83.431-117.415 67.983l-685.847-182.282c-52.522-12.358-83.417-67.97-67.97-117.403l58.701-222.445v132.851c0 80.3 64.88 145.179 145.208 145.179h707.488v-3.048h6.166zM212.018 619.016h710.593c52.52 0 95.787-43.256 95.76-95.803v-451.018c0-52.507-43.24-95.774-95.76-95.774h-710.593c-52.508 0-95.762 43.226-95.762 95.774v451.045c0 52.507 43.239 95.776 95.762 95.776zM922.637 41.273c15.446 0 30.882 12.331 30.882 30.882l3.102 0.013v114.286h-775.457v-114.286c0-15.46 12.344-30.895 30.882-30.895h710.592zM181.136 408.913h772.383l-0.027 114.3c0 15.446-12.331 30.895-30.882 30.895h-710.593c-15.434 0-30.881-12.345-30.881-30.895v-114.3z" />
<glyph unicode="&#xea00;" glyph-name="whatsapp" d="M873 811.2c-95.8 96-223.2 148.8-359 148.8-279.6 0-507.2-227.6-507.2-507.4 0-89.4 23.4-176.8 67.8-253.6l-72-263 269 70.6c74.2-40.4 157.6-61.8 242.4-61.8h0.2c0 0 0 0 0 0 279.6 0 507.4 227.6 507.4 507.4 0 135.6-52.8 263-148.6 359zM514.2 30.4v0c-75.8 0-150 20.4-214.8 58.8l-15.4 9.2-159.6-41.8 42.6 155.6-10 16c-42.4 67-64.6 144.6-64.6 224.4 0 232.6 189.2 421.8 422 421.8 112.6 0 218.6-44 298.2-123.6 79.6-79.8 123.4-185.6 123.4-298.4-0.2-232.8-189.4-422-421.8-422zM745.4 346.4c-12.6 6.4-75 37-86.6 41.2s-20 6.4-28.6-6.4c-8.4-12.6-32.8-41.2-40.2-49.8-7.4-8.4-14.8-9.6-27.4-3.2s-53.6 19.8-102 63c-37.6 33.6-63.2 75.2-70.6 87.8s-0.8 19.6 5.6 25.8c5.8 5.6 12.6 14.8 19 22.2s8.4 12.6 12.6 21.2c4.2 8.4 2.2 15.8-1 22.2s-28.6 68.8-39 94.2c-10.2 24.8-20.8 21.4-28.6 21.8-7.4 0.4-15.8 0.4-24.2 0.4s-22.2-3.2-33.8-15.8c-11.6-12.6-44.4-43.4-44.4-105.8s45.4-122.6 51.8-131.2c6.4-8.4 89.4-136.6 216.6-191.4 30.2-13 53.8-20.8 72.2-26.8 30.4-9.6 58-8.2 79.8-5 24.4 3.6 75 30.6 85.6 60.2s10.6 55 7.4 60.2c-3 5.6-11.4 8.8-24.2 15.2z" />
</font>
</defs>
</svg>
